#TITLE:customstuff;
#SUBTITLE:- Bizarre Beat!;
#ARTIST:Unknown artist;
#TITLETRANSLIT:;
#SUBTITLETRANSLIT:;
#ARTISTTRANSLIT:;
#CREDIT:;
#BANNER:;
#BACKGROUND:bizarre-bn1.PNG;
#LYRICSPATH:;
#CDTITLE:;
#MUSIC:customstuff - Bizarre Beat!.mp3;
#OFFSET:1.380;
#SAMPLESTART:46.163;
#SAMPLELENGTH:11.900;
#SELECTABLE:YES;
#BPMS:0.000=166.540,78.000=156.600,78.063=149.860,78.125=154.060,78.188=152.460,78.250=154.480,78.313=151.880,78.375=152.480,78.438=149.080,78.500=118.020,78.500=118.400,78.563=109.080,78.625=113.480,78.688=111.280,78.750=111.880,78.813=108.260,78.875=102.680,78.938=103.280,79.000=82.000,79.063=104.280,79.125=109.080,79.188=109.480,79.250=100.280,79.313=106.260,79.375=99.860,79.438=92.880,79.500=84.460,79.563=95.880,79.625=95.460,79.688=100.040,79.750=105.620,79.813=94.680,79.875=101.080,79.938=94.680,80.000=84.440,80.063=83.460,80.125=81.660,80.188=80.860,80.250=80.060,80.313=79.260,80.375=78.460,80.438=77.660,80.500=76.860,80.563=75.260,80.625=74.460,80.688=73.060,80.750=72.260,80.813=71.460,80.875=70.660,80.938=69.860,81.000=69.060,81.063=68.260,81.125=67.460,81.188=66.660,81.250=65.860,81.313=65.060,81.375=64.260,81.438=63.460,81.500=62.660,81.563=61.860,81.625=61.060,81.688=60.260,81.750=59.460,81.813=58.660,81.875=57.860,81.938=55.460,82.000=55.440,82.063=55.040,82.125=54.840,82.188=54.640,82.250=54.440,82.313=54.240,82.375=54.040,82.438=53.040,82.500=45.020,82.563=38.840,82.625=44.440,82.688=44.440,82.750=46.840,82.813=43.640,82.875=41.840,82.938=39.820,83.000=32.840,83.063=33.840,83.125=36.240,83.188=35.840,83.250=31.240,83.313=31.440,83.375=38.240,83.438=39.840,83.500=41.640,91.250=40.000,91.500=83.280,93.250=83.000,93.500=166.540,95.000=333.059,125.000=166.540;
#STOPS:83.000=0.020
,83.167=0.020
,83.333=0.020
,83.500=0.020
,125.000=2.000
;
#BGCHANGES:0.000=bizarre-bn1.PNG=1.000=0=0=1,
96.000=bizarre-bn4.PNG=1.000=0=0=1,
101.500=bizarre-bn3.PNG=1.000=0=0=1,
102.000=bizarre-bn1.PNG=1.000=0=0=1,
102.833=bizarre-bn3.PNG=1.000=0=0=1,
103.500=bizarre-bn1.PNG=1.000=0=0=1,
104.000=bizarre-bn3.PNG=1.000=0=0=1,
104.750=bizarre-bn1.PNG=1.000=0=0=1,
105.167=bizarre-bn3.PNG=1.000=0=0=1,
105.750=bizarre-bn1.PNG=1.000=0=0=1,
108.000=bizarre-bn2.PNG=1.000=0=0=1,
108.250=bizarre-bn1.PNG=1.000=0=0=1,
108.500=bizarre-bn3.PNG=1.000=0=0=1,
108.750=bizarre-bn4.PNG=1.000=0=0=1,
109.000=bizarre-bn1.PNG=1.000=0=0=1,
109.250=bizarre-bn2.PNG=1.000=0=0=1,
109.500=bizarre-bn3.PNG=1.000=0=0=1,
109.750=bizarre-bn4.PNG=1.000=0=0=1,
110.000=bizarre-bn2.PNG=1.000=0=0=1,
110.250=bizarre-bn3.PNG=1.000=0=0=1,
110.500=bizarre-bn1.PNG=1.000=0=0=1,
110.750=bizarre-bn4.PNG=1.000=0=0=1,
111.000=bizarre-bn2.PNG=1.000=0=0=1,
111.250=bizarre-bn1.PNG=1.000=0=0=1,
111.500=bizarre-bn3.PNG=1.000=0=0=1,
111.750=bizarre-bn1.PNG=1.000=0=0=1,
112.250=bizarre-bn3.PNG=1.000=0=0=1,
112.500=bizarre-bn4.PNG=1.000=0=0=1,
114.000=bizarre-bn4.PNG=1.000=0=0=1,
114.250=bizarre-bn3.PNG=1.000=0=0=1,
115.000=bizarre-bn2.PNG=1.000=0=0=1,
115.167=bizarre-bn3.PNG=1.000=0=0=1,
115.333=bizarre-bn4.PNG=1.000=0=0=1,
115.500=bizarre-bn2.PNG=1.000=0=0=1,
115.667=bizarre-bn4.PNG=1.000=0=0=1,
115.833=bizarre-bn2.PNG=1.000=0=0=1,
116.000=bizarre-bn4.PNG=1.000=0=0=1,
116.167=bizarre-bn2.PNG=1.000=0=0=1,
116.333=bizarre-bn4.PNG=1.000=0=0=1,
116.500=bizarre-bn2.PNG=1.000=0=0=1,
116.667=bizarre-bn4.PNG=1.000=0=0=1,
116.833=bizarre-bn2.PNG=1.000=0=0=1,
117.000=bizarre-bn4.PNG=1.000=0=0=1,
117.167=bizarre-bn2.PNG=1.000=0=0=1,
117.333=bizarre-bn4.PNG=1.000=0=0=1,
117.500=bizarre-bn2.PNG=1.000=0=0=1,
117.667=bizarre-bn4.PNG=1.000=0=0=1,
117.833=bizarre-bn2.PNG=1.000=0=0=1,
118.000=bizarre-bn4.PNG=1.000=0=0=1,
118.167=bizarre-bn2.PNG=1.000=0=0=1,
118.333=bizarre-bn4.PNG=1.000=0=0=1,
118.500=bizarre-bn2.PNG=1.000=0=0=1,
118.667=bizarre-bn4.PNG=1.000=0=0=1,
118.833=bizarre-bn2.PNG=1.000=0=0=1,
119.000=bizarre-bn4.PNG=1.000=0=0=1,
119.167=bizarre-bn2.PNG=1.000=0=0=1,
119.333=bizarre-bn4.PNG=1.000=0=0=1,
119.500=bizarre-bn2.PNG=1.000=0=0=1,
119.667=bizarre-bn4.PNG=1.000=0=0=1,
119.833=bizarre-bn2.PNG=1.000=0=0=1,
120.000=bizarre-bn4.PNG=1.000=0=0=1,
120.167=bizarre-bn2.PNG=1.000=0=0=1,
120.333=bizarre-bn4.PNG=1.000=0=0=1,
120.500=bizarre-bn2.PNG=1.000=0=0=1,
120.667=bizarre-bn4.PNG=1.000=0=0=1,
120.833=bizarre-bn2.PNG=1.000=0=0=1,
121.000=bizarre-bn4.PNG=1.000=0=0=1,
121.167=bizarre-bn2.PNG=1.000=0=0=1,
121.333=bizarre-bn4.PNG=1.000=0=0=1,
121.500=bizarre-bn2.PNG=1.000=0=0=1,
121.667=bizarre-bn4.PNG=1.000=0=0=1,
121.833=bizarre-bn2.PNG=1.000=0=0=1,
122.000=bizarre-bn4.PNG=1.000=0=0=1,
122.167=bizarre-bn2.PNG=1.000=0=0=1,
122.333=bizarre-bn4.PNG=1.000=0=0=1,
122.500=bizarre-bn2.PNG=1.000=0=0=1,
122.667=bizarre-bn4.PNG=1.000=0=0=1,
122.833=bizarre-bn2.PNG=1.000=0=0=1,
123.000=bizarre-bn4.PNG=1.000=0=0=1,
123.167=bizarre-bn2.PNG=1.000=0=0=1,
123.333=bizarre-bn4.PNG=1.000=0=0=1,
123.500=bizarre-bn2.PNG=1.000=0=0=1,
123.667=bizarre-bn4.PNG=1.000=0=0=1,
123.833=bizarre-bn2.PNG=1.000=0=0=1,
124.000=bizarre-bn4.PNG=1.000=0=0=1,
124.333=bizarre-bn3.PNG=1.000=0=0=1,
125.000=bizarre-bn1.PNG=1.000=0=0=1,
126.000=bizarre-bn3.PNG=1.000=0=0=1,
126.188=bizarre-bn2.PNG=1.000=0=0=1,
126.500=bizarre-bn1.PNG=1.000=0=0=1,
240.438=bizarre-bn2.PNG=1.000=0=0=1,
240.500=bizarre-bn3.PNG=1.000=0=0=1,
240.563=bizarre-bn4.PNG=1.000=0=0=1,
240.625=bizarre-bn1.PNG=1.000=0=0=1,
240.688=bizarre-bn2.PNG=1.000=0=0=1,
240.750=bizarre-bn3.PNG=1.000=0=0=1,
240.813=bizarre-bn4.PNG=1.000=0=0=1,
240.917=bizarre-bn1.PNG=1.000=0=0=1,
241.000=bizarre-bn2.PNG=1.000=0=0=1,
241.083=bizarre-bn3.PNG=1.000=0=0=1,
241.167=bizarre-bn4.PNG=1.000=0=0=1,
241.375=bizarre-bn1.PNG=1.000=0=0=1,
241.500=bizarre-bn2.PNG=1.000=0=0=1,
241.625=bizarre-bn3.PNG=1.000=0=0=1,
241.750=bizarre-bn4.PNG=1.000=0=0=1,
242.000=bizarre-bn1.PNG=1.000=0=0=1,
242.167=bizarre-bn2.PNG=1.000=0=0=1,
242.500=bizarre-bn3.PNG=1.000=0=0=1,
242.750=bizarre-bn3.PNG=1.000=0=0=1,
243.333=bizarre-bn4.PNG=1.000=0=0=1,
243.500=bizarre-bn3.PNG=1.000=0=0=1,
244.000=bizarre-bn1.PNG=1.000=0=0=1,
245.000=bizarre-bn1.PNG=1.000=0=0=1,
99999=-nosongbg-=1.000=0=0=0 // don't automatically add -songbackground-
;
// cache tags:
#FIRSTBEAT:4.000;
#LASTBEAT:240.417;
#SONGFILENAME:Songs/nhac/Bizarre Beat!/customstuff - Bizarre Beat!.sm;
#HASMUSIC:1;
#HASBANNER:0;
#MUSICLENGTH:95.428;
// end cache tags

//---------------dance-single - ----------------
#NOTES:
     dance-single:
     :
     Challenge:
     1:
     1.000,1.000,1.000,0.000,0.823,563.000,256.000,0.000,0.000,1.000:
0000
0000
0000
0000
,
0001
0010
0100
1000
,
0010
0100
0001
1000
,
0100
0010
0101
1010
,
1100
0110
0011
1001
,
1010
0110
1001
0011
,
1100
1001
0110
0101
,
1001
1100
0011
0101
,
1010
1100
0011
0101
,
1001
0000
0001
0000
0011
0000
0010
0000
0110
0000
0100
0100
1100
0000
1000
0000
,
1010
0000
0010
0000
0110
0000
0100
0000
0101
0000
0001
0001
1001
0000
1000
0000
,
1100
0000
0100
0000
0110
0000
0010
0000
0011
0000
0001
0001
1001
0000
1000
0000
,
1010
0000
1000
0000
1100
0000
0100
0000
0110
0000
0010
0010
0110
0000
0100
0000
,
1100
0000
1000
0000
1010
0000
0010
0000
0110
0000
0010
0010
1010
0000
1000
0000
,
1001
1100
0011
0101
,
1010
0100
0001
1000
0110
0001
1000
0010
0101
0010
1000
0100
0011
0000
1000
0000
,
1001
0010
0100
1000
0110
0001
0010
0100
1010
0100
0001
1000
0110
0000
0001
0000
,
1100
0010
0001
0010
1100
0010
0001
0100
1010
0100
0001
0010
1100
0000
0100
0000
,
0110
0001
0010
0100
1010
0100
0001
0010
1100
0010
0100
0001
1010
0000
0100
0000
,
1010
1010
1010
1010
1010
1010
1010
1010
,
1010
1010
1010
1010
1010
1010
1010
1010
,
1000
0000
0000
0000
0101
0000
0000
0000
0010
0000
0010
0000
1100
0000
0000
0000
0100
0000
0000
0000
0101
0000
0000
0010
0010
0000
0010
0000
0101
0000
0000
0000
,
1000
0000
1100
0000
0100
0100
0011
0001
0101
0100
0110
0010
1010
1000
1100
0100
,
0110
0010
0011
0001
1001
1000
1100
0010
1100
0010
1100
0010
1100
0000
0010
0000
,
0100
1000
0100
1000
0100
1000
0100
1000
0100
1000
0100
1000
,
0100
0000
1000
0000
0100
0000
1000
0000
0000
0000
0000
0000
0001
0010
0100
1000
0000
0000
0000
0001
0010
0100
1000
0000
,
0000
0000
0001
0010
0100
1000
0000
0000
0000
0001
0010
0100
1000
0000
0000
0000
0000
0000
0000
0000
0000
0000
0000
0000
,
1000
0000
0000
0000
0000
0000
0000
0000
0000
0000
0000
0000
0000
0000
0000
0000
0000
0000
0000
0000
0000
0000
0000
0000
0000
0000
0000
0000
0000
0000
0000
0000
0000
0000
0000
0000
0000
0000
0000
0000
0000
0000
0000
0000
0000
0000
0000
0000
0000
0000
0000
0000
0000
0000
0000
0000
0000
0000
0000
0000
0000
0000
0000
0000
0000
0000
0000
0000
0000
0000
0000
0000
1000
0000
0000
0000
0000
0000
0000
0000
0000
0000
0000
0000
0000
0000
0000
0000
0000
0000
0000
0000
0100
0000
0000
0000
0000
0000
0000
0000
0000
0000
0000
0000
0000
0000
0000
0000
0000
0000
0000
0000
0000
0000
0000
0000
0000
0000
0000
0000
0000
0000
0000
0010
0000
0000
0000
0000
0000
0000
0000
0000
0000
0000
0000
0000
0000
0000
0000
0000
0000
0000
0000
0000
0001
0000
0000
0000
0000
0000
0000
0000
0000
0000
0000
0000
0010
0000
0000
0000
0000
0000
0000
0000
0000
0000
0000
0000
0000
0000
0000
0000
0000
0000
0000
0000
0000
0000
0000
0000
0000
0000
0000
0000
0000
0000
0000
0000
0000
0000
0000
0000
,
0000
0001
0010
0000
0000
0000
0000
0000
0100
0000
0010
0000
0000
0000
0000
0000
,
1000
0010
1000
0010
1000
0010
1000
0010
1000
0010
1000
0010
1000
0010
1000
0010
,
1000
0010
1000
0010
1000
0010
1000
0010
1000
0010
1000
0010
1000
0010
1000
0010
,
1000
0000
0000
0000
0000
0000
0000
0000
0000
0000
0000
0000
0000
0000
0000
0000
0100
0000
0000
0000
0000
0000
0000
0000
0000
0000
0000
0000
0000
0000
0000
0000
0000
0000
0000
1000
0000
0000
0000
0000
0000
0000
0000
0000
0000
0000
0000
0000
1100
0000
0000
0000
0000
0000
0000
0000
0010
0000
0000
0000
0000
0000
0000
0000
,
0101
0010
1001
0100
1010
0000
1100
0001
,
1010
0100
0011
0100
1001
0000
1100
1100
,
0011
0011
0101
0101
1010
1010
1100
1100
,
0011
0011
1001
1001
0110
0110
1010
1010
,
0101
0101
0011
0011
1100
1100
1010
1010
,
1001
0000
1001
0000
0110
0000
0110
0000
1010
0000
1010
0000
1100
0010
0001
0100
,
1010
0100
0001
1000
0110
0001
1000
0000
1100
0000
0010
0000
0101
0010
1000
0100
,
0011
0100
1000
0001
1100
0010
0001
0000
1010
0000
0001
0000
0101
0010
1000
0100
,
0011
0100
1000
0010
1001
0100
0010
0000
1010
0000
1000
0000
1100
0010
0001
0010
,
1100
0010
0001
0100
1010
0100
0001
0000
0011
0000
1000
0000
1100
0000
1100
0000
,
0011
0011
0101
0101
1010
1010
0110
0110
,
1001
0000
1001
0000
1100
0000
1100
0000
0101
0000
0101
0000
0011
0100
1000
0100
,
0011
0100
1000
0010
0101
0010
1000
0000
1100
0000
0100
0000
0011
0000
0011
0000
,
0101
0101
1010
1010
1001
1001
1100
1100
,
0011
0000
0011
0000
0110
0000
0110
0000
1010
0000
1010
0000
0110
0001
1000
0100
,
0011
1000
0100
0010
1001
0100
0010
0000
1010
0000
0010
0000
1100
0000
1100
0000
,
0110
0000
0110
0000
0011
0000
0011
0000
0101
0000
0101
0000
1010
0100
0001
1000
,
0110
0001
1000
0010
0101
0010
1000
0000
1100
0000
0010
0000
0101
0000
0101
0000
,
1001
0000
1001
0000
0110
0000
0110
0000
1010
0000
1010
0000
1100
0010
0001
0100
,
1010
0100
0001
0010
1100
0010
0001
0000
1001
0000
1000
0000
1010
0000
1010
0000
,
0110
0000
0110
0000
0101
0010
1000
0100
0011
0000
0001
0000
0101
0000
0101
0000
,
1010
0000
1010
0000
1100
0010
0001
0100
1010
0000
0100
0000
1100
0000
1100
0000
,
0011
0000
0011
0000
1100
0010
0001
0100
1010
0000
1000
0000
1100
0000
1100
0000
,
1010
0000
1010
0000
0110
0001
1000
0100
0011
0000
0100
0000
1010
0100
0001
0100
,
1010
0100
0001
1000
0110
0001
1000
0100
0011
0000
0001
0000
1001
0010
0100
0010
,
1001
0100
0010
1000
0110
0001
1000
0010
0101
0000
0010
0000
1100
0001
0010
0100
,
1010
0100
0001
1000
0110
0001
1000
0010
0101
0000
0001
0000
1001
0100
0010
0001
,
1100
0010
0001
1000
0110
0001
1000
0000
0011
0000
0001
0000
0000
0000
0000
0000
,
0000
0000
0000
0000
0000
1111
0000
0000
0000
0000
0000
0000
0000
0000
0000
0000
0000
0000
0000
0000
0000
0000
0000
0000
0000
0000
0000
0000
0000
0000
0000
0000
0000
0000
0000
0000
0000
0000
0000
0000
0000
0000
0000
0000
0000
0000
0000
0000
;
